#TITLE:花右京メイド隊の歌;
#SUBTITLE:- Hanaukyo Maid-tai Opening;
#ARTIST:Hanaukyo Maid Team;
#TITLETRANSLIT:Hanaukyo Maid-tai no Uta;
#SUBTITLETRANSLIT:- Maid In Hanaukyo Opening;
#ARTISTTRANSLIT:;
#CREDIT:Lisek;
#BANNER:bn.jpg;
#BACKGROUND:bg.jpg;
#LYRICSPATH:hanaukyo.lrc;
#CDTITLE:cdtitle.gif;
#MUSIC:hanaukyo.mp3;
#OFFSET:-8.700;
#SAMPLESTART:9.200;
#SAMPLELENGTH:11.920;
#SELECTABLE:YES;
#BPMS:0.000=112.000;
#STOPS:;
#BGCHANGES:1.250=hanaukyo.avi=1.000=0=0=1,
150.000=bg.jpg=1.000=1=0=1,
99999=-nosongbg-=1.000=0=0=0 // don't automatically add -songbackground-
;
// cache tags:
#FIRSTBEAT:1.000;
#LASTBEAT:150.000;
#SONGFILENAME:songs/Otaku's Dream 3rd Anime Mix/[Lisek] Hanaukyo no Uta - Maids in Hanaukyo OP/hanaukyo.sm;
#HASMUSIC:1;
#HASBANNER:1;
#MUSICLENGTH:89.789;
// end cache tags

//---------------dance-single - ----------------
#NOTES:
     dance-single:
     :
     Hard:
     6:
     0.352,0.313,0.000,0.312,0.067,193.000,0.000,28.000,0.000,0.000:
0000
1000
1000
1000
,
0001
0000
0000
0000
0001
0000
0010
0000
0100
0000
0000
1000
0000
0000
0100
0000
,
0020
0000
0000
0031
0010
0100
1000
0001
,
0100
0000
0010
1000
0000
0000
0001
0001
,
1000
0001
0000
0000
0020
0000
0130
1000
,
0200
0320
0032
0023
,
0230
0000
1300
0001
1000
0000
0000
0000
,
0001
0010
0100
1000
0001
0010
0100
1000
,
0001
0100
0010
1000
0001
0000
0000
0000
,
1000
0001
0100
0010
1000
0000
0100
0000
,
1000
0200
0320
0032
,
2003
0000
0000
0000
0000
0000
3001
0000
1000
0000
0000
0001
0000
0000
1000
0000
,
0010
0000
0000
0000
1000
0001
0100
0010
,
1000
0000
1000
0010
0100
0010
1000
0001
,
2000
0001
3002
1000
,
2003
0001
3002
0000
,
1003
0001
1000
0000
0010
0000
0010
1000
,
0010
0000
0000
0000
0001
0000
0001
1000
,
0001
1000
0001
0000
1000
0000
0000
0001
,
1000
0000
0000
0010
0100
0001
1000
0010
,
0100
0001
1000
0001
1000
0001
1000
0001
,
1000
0000
0001
0000
1000
0001
1000
0000
,
1000
0000
0000
0001
0000
0000
1000
0000
0001
0000
0000
1000
0000
0000
0010
0000
,
1000
0000
0000
0010
0000
0000
1000
0000
0010
0000
0000
0000
0000
0000
0000
0000
,
1000
0001
1000
0000
1000
0001
1000
0000
,
1000
0000
0000
1000
0000
0000
0001
0000
1000
0000
0000
0001
1000
0000
0001
0000
,
1000
0000
0000
0000
0000
0000
0000
0000
1000
0000
0000
1000
0000
0000
1000
0000
,
0001
0020
0230
2300
,
3001
0000
0000
0000
0010
0000
0100
0000
1000
0000
0000
0001
0000
0000
1000
0000
,
0100
0000
0000
0000
0000
0000
0010
0000
0001
0000
0000
0001
0000
0000
1000
0000
,
0001
0000
0000
0001
0000
0000
1000
0000
0020
0000
0000
0000
0000
0000
0000
0000
,
0030
2000
3200
0320
,
0031
0000
0000
0000
1000
0000
0001
0000
0100
0000
0000
0010
0000
0000
0100
0000
,
0002
0000
0000
1003
0001
1000
0010
1000
,
0001
0000
0100
0010
0000
0000
1000
1000
,
0001
1000
0000
0000
0002
0000
1003
0001
,
2000
3200
0320
0032
,
1003
0000
1000
0001
1000
0000
0000
0000
;

//---------------dance-single - ----------------
#NOTES:
     dance-single:
     :
     Challenge:
     8:
     0.431,0.480,0.178,0.189,0.184,238.000,16.000,17.000,0.000,0.000:
0000
1001
0011
1001
,
1000
0000
0000
0000
1000
0000
1000
0000
0001
0000
0000
0100
0000
0000
0010
0000
,
0200
0000
0000
0301
0010
0100
0010
0001
,
0110
0000
0011
1001
0000
0000
1000
1000
,
0001
0100
0000
0000
0020
0000
0130
0001
,
0200
0302
0023
0230
,
2300
0000
0000
0000
3001
1000
0001
1000
0001
0000
0000
0000
0000
0000
0000
0000
,
1000
1000
0001
0100
0010
1000
1000
0001
,
0100
0010
0100
0001
0100
0000
1001
0000
,
1000
0000
0100
0000
1000
0000
0010
0000
0100
0000
0000
0001
0000
0000
0010
0000
,
0100
1000
0001
1000
,
0001
0000
1000
0001
1000
0000
0010
0000
0100
0000
0001
0000
1000
0000
0001
0000
,
1000
0000
1000
0001
1000
0001
1000
0001
1000
0000
0001
1000
0001
1000
0001
1000
,
0001
1000
0001
0100
0010
1000
0001
0100
,
0010
0000
1000
0001
1000
0000
0100
0000
0010
0000
0001
1000
0001
0000
0010
0000
,
0100
0000
1000
0001
1000
0000
0001
1000
0001
0000
1000
0000
0100
0000
1000
0000
,
0010
1000
1000
0000
1000
0100
1000
0001
,
0002
0000
0000
0000
0003
0000
0000
0000
0010
0000
0000
0000
0010
0000
0100
0010
,
0000
0100
0001
0100
0010
0000
0000
1000
,
0100
0000
0000
1000
0100
0010
0001
0100
,
0010
1000
0100
1000
0010
0100
0001
0010
,
0001
0000
0100
0000
0010
0000
1000
0000
0100
1000
0000
1000
0100
0000
0000
0000
,
0001
0000
0000
1000
0000
0000
0010
0000
0100
0000
0000
0010
0000
0000
0100
0000
,
0010
0000
0000
1000
0000
0000
0001
0000
0100
0000
0000
0000
0000
0000
1000
0000
,
1000
0000
0100
1000
0000
0000
0010
0000
0010
0000
0001
0010
0000
0000
0100
0000
,
1000
0000
0000
0100
0000
0000
1000
0000
1000
0000
0001
1000
0001
0000
1000
0000
,
0010
0000
0000
0000
0000
0000
0000
0000
0001
0000
0000
0010
0000
0000
0100
0000
,
1000
0101
0110
1010
,
1000
0000
0000
0000
0001
0000
1000
0000
0001
0000
0000
0001
0000
0000
1000
0000
,
0020
0000
0000
0000
0030
0000
0010
0000
1000
0000
0000
0010
0000
0000
1000
0000
,
0100
0000
0000
0010
0000
0000
0001
0000
2000
0000
0000
0001
0000
0000
0001
0000
,
3001
1100
0110
0101
,
0001
0000
0000
0000
1000
0000
1000
0000
0100
0000
0000
0010
0000
0000
0001
0000
,
0020
0000
0000
0031
0010
0001
0100
0010
,
1001
0000
1010
1001
0000
0000
1000
1000
,
0001
0100
0000
0000
0200
0000
0310
0100
,
0002
0023
0230
2300
,
3200
0000
0000
0000
1300
0001
1000
0001
1000
0000
0000
0000
0000
0000
0000
0000
;

//---------------dance-single - ----------------
#NOTES:
     dance-single:
     :
     Beginner:
     1:
     0.080,0.146,0.045,0.089,0.000,38.000,4.000,8.000,0.000,0.000:
0000
0000
0000
0000
,
1000
0000
0000
0000
,
0001
0000
0000
0000
,
1000
0000
0000
0000
,
0010
0000
0000
0000
,
0200
0000
0000
0000
,
0300
0000
0000
0000
,
0001
0000
0000
0000
,
1000
0000
0000
0000
,
0001
0000
0000
0000
,
1000
0000
0000
0000
,
0010
0000
0000
0000
,
0100
0000
0000
0000
,
0001
0000
0000
0000
,
0020
0000
0030
0000
,
0002
0000
0003
0000
,
0100
0000
0000
0000
,
0100
0000
0000
0000
,
0010
0000
0000
0000
,
0010
0000
0000
0000
,
1000
0000
0000
0000
,
0001
0000
0000
0000
,
1001
0000
0000
0000
,
0010
0000
0000
0000
,
1001
0000
0000
0000
,
0100
0000
0000
0000
,
2002
0000
0000
3003
,
0000
0002
0000
0000
,
1003
0000
0000
0000
,
0001
0000
0000
0000
,
0100
0000
0000
0000
,
0000
0020
0000
0000
,
1030
0000
0000
0000
,
0001
0000
0000
0000
,
1000
0000
0000
0000
,
0001
0000
0100
0100
,
0200
0000
0000
0000
,
0300
0000
1001
0000
;

//---------------dance-single - ----------------
#NOTES:
     dance-single:
     :
     Easy:
     2:
     0.143,0.188,0.045,0.045,0.000,82.000,4.000,4.000,0.000,0.000:
0000
1000
0001
1000
,
0001
0000
1000
0000
,
0010
0000
0100
0000
,
0001
0010
0100
0000
,
1000
0000
0001
1000
,
0002
0000
0000
0000
,
0003
0000
0000
0000
,
1000
0100
1000
0010
,
1000
0000
1000
0000
,
0001
0010
0001
0100
,
0001
0000
0001
0000
,
1000
0000
0001
0000
,
1000
0000
0010
0000
,
0100
0000
0001
0000
,
0100
0000
0100
0000
,
0100
0000
0100
0000
,
0010
0000
1000
0000
,
0010
0000
0100
0000
,
0001
0000
1000
0000
,
0001
0000
1000
0000
,
0100
1000
0100
1000
,
0010
1000
0010
0000
,
1001
0000
1000
0000
,
0001
0000
1000
0000
,
1001
0000
1001
0000
,
1000
0000
0001
1000
,
0010
0000
2000
0000
,
3001
0000
0000
0000
,
1000
0001
1000
0000
,
0010
0000
0100
0000
,
0020
0000
1030
0000
,
0000
0000
0000
0000
,
1000
0000
0001
0000
,
0100
0000
0010
0000
,
1000
0100
1000
0000
,
1000
0000
0001
1000
,
0002
0000
0000
0000
,
0003
0000
1001
0000
;

//---------------dance-single - ----------------
#NOTES:
     dance-single:
     :
     Medium:
     4:
     0.264,0.292,0.033,0.189,0.011,146.000,3.000,17.000,0.000,0.000:
0000
0001
1000
0001
,
1000
0000
0000
0000
0001
0000
0001
0000
0001
0000
0000
0001
0000
0000
1000
0000
,
1000
0000
0001
1000
,
0001
0000
1000
0001
0000
0000
1000
0000
,
0200
0000
0300
0000
1000
0000
0001
1000
,
0002
2003
3002
2003
,
3002
0000
1003
0001
1000
0000
0000
0000
,
1000
0100
0010
0001
,
0010
0000
0001
0000
,
0001
0010
0100
1000
,
0100
0010
0001
1000
,
0001
1000
0100
1000
,
0010
0100
0001
1000
,
0001
1000
0001
0010
,
0200
0000
0320
0000
,
0230
0000
0320
0000
,
0031
1000
0001
1000
,
0001
0000
0001
0100
,
0001
0000
1000
0000
0001
0000
0000
1000
,
0001
0000
1000
0001
,
0100
0000
0001
1000
0001
0000
1000
0000
,
0001
0100
0010
1000
,
1001
0001
0001
0001
,
1001
1000
1000
0000
,
1000
0001
1000
0000
1000
0001
1000
0000
,
1000
0000
1000
0000
1000
0010
1000
0000
,
0010
0000
0000
0000
0000
0000
0000
0000
1000
0000
0000
1000
0000
0000
1000
0000
,
1000
0001
0001
0001
,
0001
0000
1000
0001
1000
0000
0001
0000
,
2000
0000
0000
3001
1000
0000
0001
0000
,
1000
0100
1000
0000
,
0000
0001
0001
0001
,
0001
0000
1000
0001
1000
0000
0010
0000
,
0200
0000
0000
0301
1000
0000
0001
0000
,
1000
0000
1000
1000
0000
0000
0001
1000
,
0001
2000
0000
0000
3001
0000
0001
0000
,
0002
2003
3002
2003
,
3001
0000
1001
0000
;
